A Bug's Life 1998 10th Anniv (1080p Bluray x265 HEVC 10bit AAC 5....

  • Category Movies
  • Type HEVC/x265
  • Language English
  • Total size 4.7 GB
  • Uploaded By UTRplus
  • Downloads 368
  • Last checked 4 days ago
  • Date uploaded 1 week ago
  • Seeders 14
  • Leechers 12

A Bug's Life

AnimationFamily

On behalf of "oppressed bugs everywhere," an inventive ant named Flik hires a troupe of warrior bugs to defend his bustling colony from a horde of freeloading grasshoppers led by the evil-minded Hopper.

Infohash : 8D110827ED4F625E8426E2F1A4015A4FDCC7FFFF



A Bug's Life 1998 10th Anniversary Edition in 1080p, encoded with x265 in HEVC and AAC 5.1 English, with subtitles!
Encoded using the time consuming 2 pass, 10 bit color at 5000 kbps, from a Blu-ray source, for the highest quality possible.



Media Information

Code:

General
Format : Matroska
Format version : Version 4 / Version 2
File size : 3.75 GiB
Duration : 1 h 34 min
Overall bit rate : 5 652 kb/s
Movie name : A Bug's Life: 10th Anniversary SE
Encoded date : UTC 2017-09-16 08:54:23
Writing application : mkvmerge v14.0.0 ('Flow') 64bit
Writing library : libebml v1.3.4 + libmatroska v1.4.5

Video
ID : 1
Format : HEVC
Format/Info : High Efficiency Video Coding
Format profile : Main [email protected]@Main
Codec ID : V_MPEGH/ISO/HEVC
Duration : 1 h 34 min
Bit rate : 4 996 kb/s
Width : 1 920 pixels
Height : 816 pixels
Display aspect ratio : 2.35:1
Frame rate mode : Constant
Frame rate : 23.976 (24000/1001) FPS
Color space : YUV
Chroma subsampling : 4:2:0
Bit depth : 10 bits
Bits/(Pixel*Frame) : 0.133
Stream size : 3.31 GiB (88%)
Writing library : x265 2.5+14-2718cb5dd67f:[Windows][GCC 7.1.0][64 bit] 10bit
Encoding settings : cpuid=1173503 / frame-threads=3 / numa-pools=8 / wpp / no-pmode / no-pme / no-psnr / no-ssim / log-level=2 / input-csp=1 / input-res=1920x816 / interlace=0 / total-frames=136512 / level-idc=0 / high-tier=1 / uhd-bd=0 / ref=4 / no-allow-non-conformance / no-repeat-headers / annexb / no-aud / no-hrd / info / hash=0 / no-temporal-layers / open-gop / min-keyint=23 / keyint=250 / bframes=4 / b-adapt=2 / b-pyramid / bframe-bias=0 / rc-lookahead=25 / lookahead-slices=4 / scenecut=40 / no-intra-refresh / ctu=64 / min-cu-size=8 / rect / no-amp / max-tu-size=32 / tu-inter-depth=1 / tu-intra-depth=1 / limit-tu=0 / rdoq-level=2 / dynamic-rd=0.00 / no-ssim-rd / signhide / no-tskip / nr-intra=0 / nr-inter=0 / no-constrained-intra / strong-intra-smoothing / max-merge=3 / limit-refs=3 / limit-modes / me=3 / subme=3 / merange=57 / temporal-mvp / weightp / no-weightb / no-analyze-src-pics / deblock=0:0 / sao / no-sao-non-deblock / rd=4 / no-early-skip / rskip / no-fast-intra / no-tskip-fast / no-cu-lossless / no-b-intra / no-splitrd-skip / rdpenalty=0 / psy-rd=2.00 / psy-rdoq=1.00 / no-rd-refine / analysis-reuse-mode=0 / no-lossless / cbqpoffs=0 / crqpoffs=0 / rc=abr / bitrate=5000 / qcomp=0.60 / qpstep=4 / stats-write=0 / stats-read=2 / cplxblur=20.0 / qblur=0.5 / ipratio=1.40 / pbratio=1.30 / aq-mode=2 / aq-strength=1.00 / cutree / zone-count=0 / no-strict-cbr / qg-size=32 / no-rc-grain / qpmax=69 / qpmin=0 / no-const-vbv / sar=0 / overscan=0 / videoformat=5 / range=0 / colorprim=2 / transfer=2 / colormatrix=2 / chromaloc=0 / display-window=0 / max-cll=0,0 / min-luma=0 / max-luma=1023 / log2-max-poc-lsb=8 / vui-timing-info / vui-hrd-info / slices=1 / opt-qp-pps / opt-ref-list-length-pps / no-multi-pass-opt-rps / scenecut-bias=0.05 / no-opt-cu-delta-qp / no-aq-motion / no-hdr / no-hdr-opt / no-dhdr10-opt / analysis-reuse-level=5 / scale-factor=0 / refine-intra=0 / refine-inter=0 / refine-mv=0 / no-limit-sao / ctu-info=0
Default : Yes
Forced : No

Audio #1
ID : 2
Format : AAC
Format/Info : Advanced Audio Codec
Format profile : LC
Codec ID : A_AAC
Duration : 1 h 34 min
Bit rate : 529 kb/s
Channel(s) : 6 channels
Channel positions : Front: L C R, Side: L R, LFE
Sampling rate : 48.0 kHz
Frame rate : 46.875 FPS (1024 spf)
Compression mode : Lossy
Delay relative to video : 20 ms
Stream size : 358 MiB (9%)
Language : English
Default : Yes
Forced : No

Audio #2
ID : 3
Format : AAC
Format/Info : Advanced Audio Codec
Format profile : HE-AAC / LC
Codec ID : A_AAC
Duration : 1 h 34 min
Bit rate : 66.2 kb/s
Channel(s) : 2 channels
Channel positions : Front: L R
Sampling rate : 48.0 kHz / 24.0 kHz
Frame rate : 23.438 FPS (1024 spf)
Compression mode : Lossy
Delay relative to video : 40 ms
Stream size : 44.7 MiB (1%)
Title : Commentary
Language : English
Default : No
Forced : No

Text #1
ID : 4
Format : VobSub
Muxing mode : zlib
Codec ID : S_VOBSUB
Codec ID/Info : Picture based subtitle format used on DVDs
Duration : 1 h 34 min
Bit rate : 13.1 kb/s
Count of elements : 1507
Stream size : 8.83 MiB (0%)
Language : English
Default : No
Forced : No

Text #2
ID : 5
Format : VobSub
Muxing mode : zlib
Codec ID : S_VOBSUB
Codec ID/Info : Picture based subtitle format used on DVDs
Duration : 1 h 30 min
Bit rate : 9 127 b/s
Count of elements : 1295
Stream size : 5.89 MiB (0%)
Language : German
Default : No
Forced : No

Text #3
ID : 6
Format : VobSub
Muxing mode : zlib
Codec ID : S_VOBSUB
Codec ID/Info : Picture based subtitle format used on DVDs
Duration : 1 h 34 min
Bit rate : 19.5 kb/s
Count of elements : 1820
Stream size : 13.2 MiB (0%)
Title : Commentary
Language : German
Default : No
Forced : No

Text #4
ID : 7
Format : VobSub
Muxing mode : zlib
Codec ID : S_VOBSUB
Codec ID/Info : Picture based subtitle format used on DVDs
Duration : 1 h 30 min
Bit rate : 9 841 b/s
Count of elements : 1237
Stream size : 6.35 MiB (0%)
Language : Italian
Default : No
Forced : No

Text #5
ID : 8
Format : VobSub
Muxing mode : zlib
Codec ID : S_VOBSUB
Codec ID/Info : Picture based subtitle format used on DVDs
Duration : 1 h 34 min
Bit rate : 19.4 kb/s
Count of elements : 1817
Stream size : 13.1 MiB (0%)
Title : Commentary
Language : Italian
Default : No
Forced : No

Text #6
ID : 9
Format : VobSub
Muxing mode : zlib
Codec ID : S_VOBSUB
Codec ID/Info : Picture based subtitle format used on DVDs
Duration : 1 h 30 min
Bit rate : 10.4 kb/s
Count of elements : 1335
Stream size : 6.73 MiB (0%)
Language : Spanish
Default : No
Forced : No

Text #7
ID : 10
Format : VobSub
Muxing mode : zlib
Codec ID : S_VOBSUB
Codec ID/Info : Picture based subtitle format used on DVDs
Duration : 1 h 34 min
Bit rate : 18.8 kb/s
Count of elements : 1816
Stream size : 12.8 MiB (0%)
Title : Commentary
Language : Spanish
Default : No
Forced : No

Menu
00:00:00.000 : en:Chapter 01
00:04:28.476 : en:Chapter 02
00:07:51.971 : en:Chapter 03
00:09:51.966 : en:Chapter 04
00:15:18.626 : en:Chapter 05
00:17:18.787 : en:Chapter 06
00:18:55.759 : en:Chapter 07
00:20:04.494 : en:Chapter 08
00:26:07.941 : en:Chapter 09
00:27:48.917 : en:Chapter 10
00:31:29.137 : en:Chapter 11
00:32:43.002 : en:Chapter 12
00:35:57.363 : en:Chapter 13
00:39:42.213 : en:Chapter 14
00:41:26.609 : en:Chapter 15
00:45:08.372 : en:Chapter 16
00:45:49.413 : en:Chapter 17
00:47:16.667 : en:Chapter 18
00:49:13.659 : en:Chapter 19
00:52:50.917 : en:Chapter 20
00:56:35.600 : en:Chapter 21
00:58:49.192 : en:Chapter 22
01:02:24.323 : en:Chapter 23
01:04:26.988 : en:Chapter 24
01:05:30.176 : en:Chapter 25
01:06:46.794 : en:Chapter 26
01:10:01.614 : en:Chapter 27
01:10:49.078 : en:Chapter 28
01:15:15.260 : en:Chapter 29
01:17:29.311 : en:Chapter 30
01:20:00.295 : en:Chapter 31
01:21:12.909 : en:Chapter 32
01:23:05.438 : en:Chapter 33
01:24:15.925 : en:Chapter 34
01:28:30.430 : en:Chapter 35
01:29:56.099 : en:Chapter 36


Source Information

Code:

Complete name : A_Bug's_Life_10th_Anniversary_SE_t03.mkv
File size : 21.6 GiB
Duration : 1 h 34 min
Overall bit rate : 32.6 Mb/s


Files:

A Bug's Life 1998 10th Anniv (1080p Bluray x265 HEVC 10bit AAC 5.1 Tigole)
  • A Bug's Life 1998 10th Anniv (1080p x265 10bit Tigole).mkv (3.7 GB)
  • Featurettes
    • Abandoned Sequence - Original Museum Opening.mkv (19.9 MB)
    • Abandoned Sequence - P.T.'s Office.mkv (19.3 MB)
    • Alternate Outtakes.mkv (28.1 MB)
    • Behind the Scenes.mkv (25.7 MB)
    • Character Interviews.mkv (6.6 MB)
    • Early Tests.mkv (26.1 MB)
    • Filmmakers' Roundtable.mkv (241.3 MB)
    • Fleabie Reel.mkv (33.4 MB)
    • Introduction by John Lasseter.mkv (13.2 MB)
    • Outtakes.mkv (28.1 MB)
    • Research Documentary.mkv (38.1 MB)
    • Short - Geri's Game.mkv (38.1 MB)
    • Silly Symphony - The Grasshopper and the Ants.mkv (80.0 MB)
    • Sound Design.mkv (150.1 MB)
    • Storyboard Pitch.mkv (14.0 MB)
    • Storyboard to Film Comparison.mkv (44.3 MB)
    • Teaser.mkv (1.6 MB)
    • The First Draft.mkv (118.3 MB)
    • The Story Behind the Outtakes.mkv (17.1 MB)
    • Trailer.mkv (10.6 MB)
    • Voice Casting.mkv (22.4 MB)

Comments

Code:

  • udp://tracker.torrent.eu.org:451/announce
  • udp://tracker.opentrackr.org:1337/announce
  • udp://tracker.coppersurfer.tk:6969/announce